#TITLE:Mr. Moonlight;
#SUBTITLE:;
#ARTIST:Tyco Superstars;
#TITLETRANSLIT:;
#SUBTITLETRANSLIT:;
#ARTISTTRANSLIT:;
#CREDIT:;
#BANNER:;
#BACKGROUND:;
#LYRICSPATH:;
#CDTITLE:;
#MUSIC:Mr Moonlight.mp3;
#MUSICLENGTH:94.466;
#OFFSET:-0.120;
#SAMPLESTART:9.165;
#SAMPLELENGTH:12.000;
#SELECTABLE:YES;
#BPMS:0.000=182.860;
#STOPS:;
#BGCHANGES:;
#FIRSTBEAT:28.000;

#LASTBEAT:284.000;

#SONGFILENAME:Songs/ERICth The 3rd/Mr Moonlight/Mr Moonlight.sm;

#HASMUSIC:1;

#HASBANNER:0;


//---------------dance-single - MANIAC----------------
#NOTES:
     dance-single:
     MANIAC:
     hard:
     7:
     0.443,0.526,0.212,0.191,0.153,255.000,20.000,18.000,0.000,0.000:

0000
0000
0000
0000
,
0000
0000
0000
0000
,
0000
0000
0000
0000
,
0000
0000
0000
0000
,
0000
0000
0000
0000
,
0000
0000
0000
0000
,
0000
0000
0000
0000
,
1000
0001
1000
0001
,
1000
0100
0000
0100
0000
0100
0000
0000
,
0010
0100
0010
0100
,
0010
1000
1100
0000
,
0001
1000
0001
1000
,
0001
0010
0000
0010
0000
0010
0000
0000
,
1000
0002
0000
0000
,
0000
0000
0000
0000
,
1003
0100
0010
0001
,
1001
0000
0000
1001
0000
0000
0000
0000
,
1000
0100
0010
0001
,
1100
0101
1100
0000
,
2000
0000
3200
0000
,
0320
0000
0032
0000
,
1003
0000
0100
0000
0010
0000
0100
0000
1000
0000
0000
1001
,
0000
0000
0000
1000
0001
0000
0000
1000
0000
0000
0000
0000
0000
0000
0000
0000
,
1000
0010
0100
0001
,
1000
0001
0000
0001
0000
0001
0000
0000
,
1000
0010
0100
0001
,
1000
0000
0000
0100
0000
0000
1000
0000
0000
0100
0000
0000
0000
0000
0000
0100
0000
0000
0000
0000
0000
0000
1000
0000
,
0001
0001
1000
1000
,
0210
0000
0000
0310
0000
0000
0000
0000
,
1000
1000
0001
0001
,
1010
0011
1010
0000
,
0200
0000
0302
0000
,
2003
0000
3020
0000
,
0031
0000
0100
0000
0010
0000
0100
0000
0001
0000
0000
1001
,
0000
0000
0000
1000
0001
0000
0000
1000
0000
0000
0000
0000
0110
0000
0000
0000
,
1001
1000
0001
0100
,
0010
0000
0000
0000
0100
0000
0000
0000
1000
0000
0000
0000
0001
0000
0000
0001
,
1000
0000
0001
0000
0000
0000
0000
0001
1000
0000
0001
0000
0000
0000
0000
0001
,
1000
0001
1000
0001
0000
0000
0000
0000
,
1000
0100
0010
0001
,
0010
0000
0000
0000
0100
0000
0000
0000
1000
0000
0000
0000
0000
0000
0000
0010
,
1000
0000
0100
0000
0000
0000
0000
0010
1000
0000
0100
0000
0000
0000
0000
0010
,
1000
0000
0100
0000
1000
0000
0100
0000
0000
0000
0110
0000
0000
0000
0000
0010
,
0001
0000
0100
0000
0000
0000
0000
0010
0001
0000
0100
0000
0000
0000
0000
0010
,
0001
0000
1001
1001
0000
0000
0000
0000
,
0001
1000
0000
0001
0000
1000
0000
0100
,
0000
1000
0000
0100
0000
0100
0000
0000
,
1000
0001
0000
1000
0000
0001
0000
0100
,
0000
0000
0000
0001
0000
0000
0100
0000
0000
0100
0000
0000
0000
0000
0001
0000
0000
0000
0000
0000
0000
0000
0000
0000
,
1000
0001
0000
0001
0000
0001
0000
0000
,
0011
0000
1100
0000
0000
0000
0000
1000
,
0000
0000
0000
0000
0001
0000
0000
0000
0000
0000
0000
0000
0000
0000
0000
1000
0000
0000
0000
0000
0000
0000
0000
0000
0100
0000
0000
0000
0000
0000
0000
0000
0000
0010
0000
0000
0000
0000
0000
0000
0000
0000
0000
0000
1000
0000
0000
0000
,
0000
0000
0000
0000
0000
0000
0000
0000
0000
1000
0000
0000
0001
0000
0000
0000
0000
0000
0000
0000
0001
0000
0000
0000
0000
0000
0000
0000
0000
0000
0000
0000
0000
0000
0000
0000
0000
0000
0000
0000
0000
0000
0000
0000
0000
0000
0000
0000
,
0000
1000
0010
0100
,
1000
0100
1000
0000
0001
0100
0001
0000
,
1000
0100
1000
0000
0001
0100
0001
0000
,
1000
0010
1000
0000
0001
0010
0001
0000
,
1000
0010
1000
0000
0001
0010
0001
0000
,
0010
0000
0200
0002
0000
0000
0303
0000
,
0010
0000
0200
2000
0000
0000
3300
0000
,
1000
1000
0100
0100
,
0010
0010
0001
0001
,
1000
0100
1000
0000
0010
0001
0010
0000
,
1000
0010
1000
0000
0001
0100
0001
0000
,
1000
0001
1000
0000
1000
0001
1000
0000
,
0010
1000
0001
0000
0010
0001
1000
0000
,
0100
0000
2000
0020
0000
0000
3030
0000
,
0100
0000
0001
0100
0000
0100
0000
0200
,
0000
0000
0000
0000
,
0000
0000
0000
1300
,
1001
0000
0001
1000
2000
0000
0000
0010
,
3000
0000
0000
0000;

//---------------dance-single - ANOTHER----------------
#NOTES:
     dance-single:
     ANOTHER:
     medium:
     4:
     0.284,0.376,0.095,0.032,0.000,176.000,9.000,3.000,0.000,0.000:

0000
0000
0000
0000
,
0000
0000
0000
0000
,
0000
0000
0000
0000
,
0000
0000
0000
0000
,
0000
0000
0000
0000
,
0000
0000
0000
0000
,
0000
0000
0000
0000
,
1000
0100
1000
0100
,
1000
0010
0000
0010
0000
0010
0000
0000
,
1000
0100
1000
0100
,
1000
0010
0010
0000
,
1000
0100
1000
0100
,
1000
0010
0000
0010
0000
0010
0000
0000
,
1000
0000
0000
0000
,
0000
0000
0000
0000
,
0001
0000
1000
0000
,
0100
0000
0000
0010
0000
0000
0000
0000
,
0001
0000
1000
0000
,
0011
0011
0011
0000
,
0100
0000
0010
0000
,
1000
0000
0001
0000
,
0100
0000
0010
0000
,
1000
0000
0001
0000
,
0100
1000
0010
1000
,
0001
0100
0001
0010
,
0001
1000
0010
1000
,
0100
0000
1000
0000
0001
0000
0000
0001
,
1000
0100
0010
0100
,
0010
0001
1000
0010
,
1000
0100
0010
0001
,
0011
0011
0011
0000
,
0000
0010
0100
0001
,
1000
0010
0100
0000
,
0001
0000
0001
0000
,
0001
0000
0000
0000
,
1001
0010
0100
0000
,
0100
0010
0100
0000
,
0001
0000
1000
0000
,
0001
1000
0001
0000
,
0010
0100
0010
0000
,
0010
0100
0010
0000
,
2000
0000
0000
0000
,
0000
0000
0000
0000
0000
0000
0000
3000
,
0002
0000
0000
0000
,
0000
0000
1000
1003
,
1001
0100
0010
0100
,
0001
1000
0010
0100
,
0001
1000
0100
0010
,
0001
1000
0010
0001
,
1000
0010
0100
0001
,
1000
0100
0001
0100
,
1000
0000
0001
0000
,
0001
0000
0000
0000
,
1001
0100
0010
0010
,
0010
0000
0000
0000
,
0100
0000
0000
0010
,
0100
0100
0100
0000
,
0001
0000
1000
0000
,
0100
0100
0100
0000
,
0010
0010
0010
0000
,
1000
0100
0100
0000
,
0001
0100
0100
0000
,
0010
1000
0001
0000
,
0010
0001
1000
0000
,
0100
0010
0001
0000
,
0100
0000
1000
0000
0010
0000
0000
0010
,
0000
1000
0000
0001
0000
0000
0000
0000
,
0010
0000
0010
0000
,
0001
0000
0100
0000
,
1000
0000
0100
0000
,
1000
0000
0002
0000
,
0003
0000
0000
0000;

//---------------dance-single - BASIC----------------
#NOTES:
     dance-single:
     BASIC:
     easy:
     3:
     0.200,0.301,0.064,0.011,0.000,125.000,6.000,1.000,0.000,0.000:

0000
0000
0000
0000
,
0000
0000
0000
0000
,
0000
0000
0000
0000
,
0000
0000
0000
0000
,
0000
0000
0000
0000
,
0000
0000
0000
0000
,
0000
0000
0000
0000
,
0011
0000
1000
0000
,
0000
0000
0000
0000
,
0011
0000
1000
0000
,
0000
0000
0000
0000
,
0011
0000
1000
0000
,
0000
0000
0000
0000
,
0200
0000
0000
0000
,
0000
0000
0000
0000
,
1300
0000
0001
0000
,
1000
0000
0001
0000
,
1000
0000
0001
0000
,
0001
0001
0001
0000
,
0100
0000
1000
0000
,
0010
0000
0100
0000
,
1000
0000
0000
0000
,
0000
0000
0000
0000
,
0010
0000
0100
0000
,
0010
0100
0010
0100
,
0001
0000
1000
0000
,
0010
1000
0001
0010
,
0001
0000
1000
0000
,
0001
0000
1000
0000
,
0001
0000
0100
0000
,
0110
0110
0110
0000
,
1000
0000
0001
0000
,
0000
1000
0001
0000
,
0100
0000
0000
0000
,
0000
0000
0000
0000
,
0010
0000
0010
0000
,
0010
0000
0010
0000
,
0001
0000
0010
0000
,
1000
0000
0010
0000
,
0100
0000
0100
0000
,
0100
0000
0100
0000
,
1000
0000
0000
0000
,
0001
0000
0000
0000
,
0001
0000
0000
0000
,
1000
0000
0000
0000
,
0010
0100
0100
0000
,
0010
0100
0100
0000
,
0100
0010
0010
0000
,
0100
0010
0010
0000
,
0010
1000
1000
0000
,
0010
0001
0001
0000
,
1000
0000
0000
0000
,
0000
0000
0000
0000
,
0001
0000
0000
0000
,
1000
0100
0100
0000
,
1000
0100
0001
0000
,
0010
0001
0100
0000
,
0010
1000
0001
0000
,
0010
0001
1000
0000
,
0010
0100
0001
0000
,
0100
1000
0010
0000
,
0100
0001
0010
0000
,
0100
0001
1000
0000
,
0100
1000
0001
0000
,
0100
0001
1000
0000
,
0100
1000
0001
0000
,
0010
0000
0000
0000
,
0010
0000
0000
0000
,
0010
0000
0000
0000
,
0010
0000
0000
0000
,
0100
0000
0000
0000
,
0001
0000
0000
0000;
